Posted : 1 Week ago

  1. GIRL.UNBOUND.The.War.to.Be.Her.2016.1080p.WEBRip.AAC2.0.x264-QOQ.mkv
  2. General
  3. Unique ID                                : 171605511937193949736328841094505225511 (0x811A04F7CD93FE81C02AE53A8128DD27)
  4. Complete name                            : D:\GIRL.UNBOUND.The.War.to.Be.Her.2016.1080p.WEBRip.AAC2.0.x264-QOQ.mkv
  5. Format                                   : Matroska
  6. Format version                           : Version 4
  7. File size                                : 3.37 GiB
  8. Duration                                 : 1 h 14 min
  9. Overall bit rate                         : 6 447 kb/s
  10. Encoded date                             : UTC 2018-07-24 23:21:39
  11. Writing application                      : mkvmerge v24.0.0 ('Beyond The Pale') 64-bit
  12. Writing library                          : libebml v1.3.6 + libmatroska v1.4.9
  13.  
  14. Video
  15. ID                                       : 1
  16. Format                                   : AVC
  17. Format/Info                              : Advanced Video Codec
  18. Format profile                           : [email protected]
  19. Format settings                          : CABAC / 3 Ref Frames
  20. Format settings, CABAC                   : Yes
  21. Format settings, Reference frames        : 3 frames
  22. Codec ID                                 : V_MPEG4/ISO/AVC
  23. Duration                                 : 1 h 14 min
  24. Bit rate mode                            : Constant
  25. Bit rate                                 : 6 500 kb/s
  26. Width                                    : 1 920 pixels
  27. Height                                   : 1 080 pixels
  28. Display aspect ratio                     : 16:9
  29. Frame rate mode                          : Constant
  30. Frame rate                               : 29.970 (30000/1001) FPS
  31. Color space                              : YUV
  32. Chroma subsampling                       : 4:2:0
  33. Bit depth                                : 8 bits
  34. Scan type                                : Progressive
  35. Bits/(Pixel*Frame)                       : 0.105
  36. Stream size                              : 3.32 GiB (99%)
  37. Default                                  : Yes
  38. Forced                                   : No
  39.  
  40. Audio
  41. ID                                       : 2
  42. Format                                   : AAC LC
  43. Format/Info                              : Advanced Audio Codec Low Complexity
  44. Codec ID                                 : A_AAC-2
  45. Duration                                 : 1 h 14 min
  46. Bit rate                                 : 93.4 kb/s
  47. Channel(s)                               : 2 channels
  48. Channel layout                           : L R
  49. Sampling rate                            : 48.0 kHz
  50. Frame rate                               : 46.875 FPS (1024 SPF)
  51. Compression mode                         : Lossy
  52. Delay relative to video                  : -33 ms
  53. Stream size                              : 49.9 MiB (1%)
  54. Language                                 : English
  55. Default                                  : Yes
  56. Forced                                   : No
  57.  
  58. Text
  59. ID                                       : 3
  60. Format                                   : UTF-8
  61. Codec ID                                 : S_TEXT/UTF8
  62. Codec ID/Info                            : UTF-8 Plain Text
  63. Duration                                 : 1 h 14 min
  64. Bit rate                                 : 44 b/s
  65. Count of elements                        : 908
  66. Stream size                              : 24.1 KiB (0%)
  67. Language                                 : English
  68. Default                                  : Yes
  69. Forced                                   : No
  70.  
  71.  
  72.