Posted : 4 Days ago

  1. Concussion.2013.WEBRip.XviD.MP3-RBG.avi
  2. General
  3. Complete name                            : D:\Concussion.2013.WEBRip.XviD.MP3-RBG.avi
  4. Format                                   : AVI
  5. Format/Info                              : Audio Video Interleave
  6. File size                                : 871 MiB
  7. Duration                                 : 1 h 36 min
  8. Overall bit rate                         : 1 268 kb/s
  9. Movie name                               : RARBG - Concussion.2013.WEBRip.XviD.MP3-XVID
  10. Writing application                      : Lavf58.20.100
  11. Comment                                  : RARBG - Concussion.2013.WEBRip.XviD.MP3-XVID
  12.  
  13. Video
  14. ID                                       : 0
  15. Format                                   : MPEG-4 Visual
  16. Format profile                           : [email protected]
  17. Format settings, BVOP                    : No
  18. Format settings, QPel                    : No
  19. Format settings, GMC                     : No warppoints
  20. Format settings, Matrix                  : Default (H.263)
  21. Codec ID                                 : XVID
  22. Codec ID/Hint                            : XviD
  23. Duration                                 : 1 h 36 min
  24. Bit rate                                 : 1 064 kb/s
  25. Width                                    : 720 pixels
  26. Height                                   : 306 pixels
  27. Display aspect ratio                     : 2.35:1
  28. Frame rate                               : 23.976 (24000/1001) FPS
  29. Color space                              : YUV
  30. Chroma subsampling                       : 4:2:0
  31. Bit depth                                : 8 bits
  32. Scan type                                : Progressive
  33. Compression mode                         : Lossy
  34. Bits/(Pixel*Frame)                       : 0.201
  35. Stream size                              : 731 MiB (84%)
  36. Title                                    : RARBG - Concussion.2013.WEBRip.XviD.MP3-XVID
  37. Writing library                          : Lavc58.35.100
  38.  
  39. Audio
  40. ID                                       : 1
  41. Format                                   : MPEG Audio
  42. Format version                           : Version 1
  43. Format profile                           : Layer 3
  44. Format settings                          : Joint stereo / MS Stereo
  45. Codec ID                                 : 55
  46. Codec ID/Hint                            : MP3
  47. Duration                                 : 1 h 36 min
  48. Bit rate mode                            : Constant
  49. Bit rate                                 : 192 kb/s
  50. Channel(s)                               : 2 channels
  51. Sampling rate                            : 48.0 kHz
  52. Compression mode                         : Lossy
  53. Stream size                              : 132 MiB (15%)
  54. Alignment                                : Aligned on interleaves
  55. Interleave, duration                     : 24  ms (0.58 video frame)
  56. Interleave, preload duration             : 24  ms
  57. Title                                    : RARBG - Concussion.2013.WEBRip.XviD.MP3-XVID
  58. Writing library                          : LAME
  59.  
  60.  
  61.  
  62. ===================================
  63. Concussion.2013.1080p.WEBRip.DD5.1.x264-NTb.mkv
  64. General
  65. Unique ID                                : 247661074154382898175195174274974303397 (0xBA51C9B253B34195B5CC1910B9BF44A5)
  66. Complete name                            : D:\Concussion.2013.1080p.WEBRip.DD5.1.x264-NTb.mkv
  67. Format                                   : Matroska
  68. Format version                           : Version 4
  69. File size                                : 2.83 GiB
  70. Duration                                 : 1 h 36 min
  71. Overall bit rate mode                    : Variable
  72. Overall bit rate                         : 4 214 kb/s
  73. Encoded date                             : UTC 2016-08-24 22:41:43
  74. Writing application                      : mkvmerge v9.3.1 ('Mask Machine') 64bit
  75. Writing library                          : libebml v1.3.4 + libmatroska v1.4.5
  76.  
  77. Video
  78. ID                                       : 1
  79. Format                                   : AVC
  80. Format/Info                              : Advanced Video Codec
  81. Format profile                           : [email protected]
  82. Format settings                          : CABAC / 4 Ref Frames
  83. Format settings, CABAC                   : Yes
  84. Format settings, Reference frames        : 4 frames
  85. Codec ID                                 : V_MPEG4/ISO/AVC
  86. Duration                                 : 1 h 36 min
  87. Bit rate mode                            : Variable
  88. Bit rate                                 : 3 491 kb/s
  89. Maximum bit rate                         : 15.0 Mb/s
  90. Width                                    : 1 920 pixels
  91. Height                                   : 816 pixels
  92. Display aspect ratio                     : 2.35:1
  93. Frame rate mode                          : Constant
  94. Frame rate                               : 23.976 (24000/1001) FPS
  95. Color space                              : YUV
  96. Chroma subsampling                       : 4:2:0
  97. Bit depth                                : 8 bits
  98. Scan type                                : Progressive
  99. Bits/(Pixel*Frame)                       : 0.093
  100. Stream size                              : 2.34 GiB (83%)
  101. Writing library                          : x264 core 148 r2623 d5b2374
  102. Encoding settings                        : cabac=1 / ref=4 / deblock=1:-1:-1 / analyse=0x3:0x133 / me=umh / subme=9 / psy=1 / psy_rd=1.00:0.15 / mixed_ref=1 / me_range=24 / chroma_me=1 / trellis=2 / 8x8dct=1 / cqm=0 / deadzone=21,11 / fast_pskip=1 / chroma_qp_offset=-3 / threads=25 / lookahead_threads=4 / sliced_threads=0 / nr=150 / decimate=1 / interlaced=0 / bluray_compat=0 / constrained_intra=0 / bframes=8 / b_pyramid=2 / b_adapt=2 / b_bias=0 / direct=3 / weightb=1 / open_gop=0 / weightp=2 / keyint=120 / keyint_min=61 / scenecut=0 / intra_refresh=0 / rc_lookahead=120 / rc=crf / mbtree=1 / crf=18.0 / qcomp=0.60 / qpmin=0 / qpmax=69 / qpstep=4 / vbv_maxrate=15000 / vbv_bufsize=31250 / crf_max=0.0 / nal_hrd=vbr / filler=0 / ip_ratio=1.40 / aq=3:1.00
  103. Default                                  : Yes
  104. Forced                                   : No
  105. Color range                              : Limited
  106. Color primaries                          : BT.709
  107. Transfer characteristics                 : BT.709
  108. Matrix coefficients                      : BT.709
  109.  
  110. Audio
  111. ID                                       : 2
  112. Format                                   : E-AC-3
  113. Format/Info                              : Enhanced AC-3
  114. Commercial name                          : Dolby Digital Plus
  115. Codec ID                                 : A_EAC3
  116. Duration                                 : 1 h 36 min
  117. Bit rate mode                            : Constant
  118. Bit rate                                 : 640 kb/s
  119. Channel(s)                               : 6 channels
  120. Channel layout                           : L R C LFE Ls Rs
  121. Sampling rate                            : 48.0 kHz
  122. Frame rate                               : 31.250 FPS (1536 SPF)
  123. Compression mode                         : Lossy
  124. Stream size                              : 440 MiB (15%)
  125. Language                                 : English
  126. Service kind                             : Complete Main
  127. Default                                  : Yes
  128. Forced                                   : No
  129.  
  130. Text
  131. ID                                       : 3
  132. Format                                   : UTF-8
  133. Codec ID                                 : S_TEXT/UTF8
  134. Codec ID/Info                            : UTF-8 Plain Text
  135. Default                                  : No
  136. Forced                                   : No
  137.  
  138.  
  139.