Posted : 1 Week ago

  1. Povestea.unui.pierde-vara.2018.Romanian.AMZN.WEB-DL.DDP2.0.H.264-KamiKaze.mkv
  2. General
  3. Unique ID                                : 15220882294916411447942322517779556202 (0xB736F6FC4527DA8B31995830E96276A)
  4. Complete name                            : D:\Povestea.unui.pierde-vara.2018.Romanian.AMZN.WEB-DL.DDP2.0.H.264-KamiKaze.mkv
  5. Format                                   : Matroska
  6. Format version                           : Version 4
  7. File size                                : 924 MiB
  8. Duration                                 : 1 h 39 min
  9. Overall bit rate                         : 1 298 kb/s
  10. Encoded date                             : UTC 2019-09-11 04:10:04
  11. Writing application                      : mkvmerge v9.8.0 ('Kuglblids') 64bit
  12. Writing library                          : libebml v1.3.4 + libmatroska v1.4.5
  13.  
  14. Video
  15. ID                                       : 1
  16. Format                                   : AVC
  17. Format/Info                              : Advanced Video Codec
  18. Format profile                           : [email protected]
  19. Format settings                          : CABAC / 4 Ref Frames
  20. Format settings, CABAC                   : Yes
  21. Format settings, Reference frames        : 4 frames
  22. Codec ID                                 : V_MPEG4/ISO/AVC
  23. Duration                                 : 1 h 39 min
  24. Bit rate mode                            : Constant
  25. Bit rate                                 : 1 169 kb/s
  26. Nominal bit rate                         : 2 000 kb/s
  27. Width                                    : 712 pixels
  28. Height                                   : 296 pixels
  29. Display aspect ratio                     : 2.40:1
  30. Original display aspect ratio            : 2.40:1
  31. Frame rate mode                          : Constant
  32. Frame rate                               : 24.000 FPS
  33. Color space                              : YUV
  34. Chroma subsampling                       : 4:2:0
  35. Bit depth                                : 8 bits
  36. Scan type                                : Progressive
  37. Bits/(Pixel*Frame)                       : 0.231
  38. Stream size                              : 831 MiB (90%)
  39. Default                                  : Yes
  40. Forced                                   : No
  41. Color range                              : Limited
  42. Color primaries                          : BT.709
  43. Transfer characteristics                 : BT.709
  44. Matrix coefficients                      : BT.709
  45.  
  46. Audio
  47. ID                                       : 2
  48. Format                                   : E-AC-3
  49. Format/Info                              : Enhanced AC-3
  50. Commercial name                          : Dolby Digital Plus
  51. Codec ID                                 : A_EAC3
  52. Duration                                 : 1 h 39 min
  53. Bit rate mode                            : Constant
  54. Bit rate                                 : 128 kb/s
  55. Channel(s)                               : 2 channels
  56. Channel layout                           : L R
  57. Sampling rate                            : 48.0 kHz
  58. Frame rate                               : 31.250 FPS (1536 SPF)
  59. Compression mode                         : Lossy
  60. Stream size                              : 91.1 MiB (10%)
  61. Language                                 : Romanian
  62. Service kind                             : Complete Main
  63. Default                                  : Yes
  64. Forced                                   : No
  65.  
  66. Text
  67. ID                                       : 3
  68. Format                                   : UTF-8
  69. Codec ID                                 : S_TEXT/UTF8
  70. Codec ID/Info                            : UTF-8 Plain Text
  71. Duration                                 : 1 h 35 min
  72. Bit rate                                 : 57 b/s
  73. Count of elements                        : 1447
  74. Stream size                              : 40.5 KiB (0%)
  75. Title                                    : English [CC](SDH)
  76. Language                                 : English
  77. Default                                  : Yes
  78. Forced                                   : No
  79.  
  80.  
  81.  
  82. ===================================
  83. Povestea.unui.pierde-vara.2018.Romanian.720p.AMZN.WEB-DL.DDP2.0.H.264-KamiKaze.mkv
  84. General
  85. Unique ID                                : 5784125021390806484721910722801672344 (0x459FB619AC55773D0B712F132F3A098)
  86. Complete name                            : D:\Povestea.unui.pierde-vara.2018.Romanian.720p.AMZN.WEB-DL.DDP2.0.H.264-KamiKaze.mkv
  87. Format                                   : Matroska
  88. Format version                           : Version 4
  89. File size                                : 1.55 GiB
  90. Duration                                 : 1 h 39 min
  91. Overall bit rate                         : 2 233 kb/s
  92. Encoded date                             : UTC 2019-09-11 04:43:09
  93. Writing application                      : mkvmerge v9.8.0 ('Kuglblids') 64bit
  94. Writing library                          : libebml v1.3.4 + libmatroska v1.4.5
  95.  
  96. Video
  97. ID                                       : 1
  98. Format                                   : AVC
  99. Format/Info                              : Advanced Video Codec
  100. Format profile                           : [email protected]
  101. Format settings                          : CABAC / 5 Ref Frames
  102. Format settings, CABAC                   : Yes
  103. Format settings, Reference frames        : 5 frames
  104. Codec ID                                 : V_MPEG4/ISO/AVC
  105. Duration                                 : 1 h 39 min
  106. Bit rate                                 : 2 007 kb/s
  107. Width                                    : 1 280 pixels
  108. Height                                   : 528 pixels
  109. Display aspect ratio                     : 2.40:1
  110. Original display aspect ratio            : 2.40:1
  111. Frame rate mode                          : Constant
  112. Frame rate                               : 24.000 FPS
  113. Color space                              : YUV
  114. Chroma subsampling                       : 4:2:0
  115. Bit depth                                : 8 bits
  116. Scan type                                : Progressive
  117. Bits/(Pixel*Frame)                       : 0.124
  118. Stream size                              : 1.39 GiB (90%)
  119. Default                                  : Yes
  120. Forced                                   : No
  121. Color range                              : Limited
  122. Color primaries                          : BT.709
  123. Transfer characteristics                 : BT.709
  124. Matrix coefficients                      : BT.709
  125.  
  126. Audio
  127. ID                                       : 2
  128. Format                                   : E-AC-3
  129. Format/Info                              : Enhanced AC-3
  130. Commercial name                          : Dolby Digital Plus
  131. Codec ID                                 : A_EAC3
  132. Duration                                 : 1 h 39 min
  133. Bit rate mode                            : Constant
  134. Bit rate                                 : 224 kb/s
  135. Channel(s)                               : 2 channels
  136. Channel layout                           : L R
  137. Sampling rate                            : 48.0 kHz
  138. Frame rate                               : 31.250 FPS (1536 SPF)
  139. Compression mode                         : Lossy
  140. Stream size                              : 159 MiB (10%)
  141. Language                                 : Romanian
  142. Service kind                             : Complete Main
  143. Default                                  : Yes
  144. Forced                                   : No
  145.  
  146. Text
  147. ID                                       : 3
  148. Format                                   : UTF-8
  149. Codec ID                                 : S_TEXT/UTF8
  150. Codec ID/Info                            : UTF-8 Plain Text
  151. Duration                                 : 1 h 35 min
  152. Bit rate                                 : 57 b/s
  153. Count of elements                        : 1447
  154. Stream size                              : 40.5 KiB (0%)
  155. Title                                    : English [CC](SDH)
  156. Language                                 : English
  157. Default                                  : Yes
  158. Forced                                   : No
  159.  
  160.  
  161.  
  162. ===================================
  163. Povestea.unui.pierde-vara.2018.Romanian.1080p.AMZN.WEB-DL.DDP2.0.H.264-KamiKaze.mkv
  164. General
  165. Unique ID                                : 102111313689629189304880040476808780654 (0x4CD1EC759BADD54FE12A2D7A08071B6E)
  166. Complete name                            : D:\Povestea.unui.pierde-vara.2018.Romanian.1080p.AMZN.WEB-DL.DDP2.0.H.264-KamiKaze.mkv
  167. Format                                   : Matroska
  168. Format version                           : Version 4
  169. File size                                : 6.76 GiB
  170. Duration                                 : 1 h 39 min
  171. Overall bit rate                         : 9 729 kb/s
  172. Encoded date                             : UTC 2019-09-11 04:07:19
  173. Writing application                      : mkvmerge v9.8.0 ('Kuglblids') 64bit
  174. Writing library                          : libebml v1.3.4 + libmatroska v1.4.5
  175.  
  176. Video
  177. ID                                       : 1
  178. Format                                   : AVC
  179. Format/Info                              : Advanced Video Codec
  180. Format profile                           : [email protected]
  181. Format settings                          : CABAC / 4 Ref Frames
  182. Format settings, CABAC                   : Yes
  183. Format settings, Reference frames        : 4 frames
  184. Codec ID                                 : V_MPEG4/ISO/AVC
  185. Duration                                 : 1 h 39 min
  186. Bit rate mode                            : Constant
  187. Bit rate                                 : 9 503 kb/s
  188. Nominal bit rate                         : 10 000 kb/s
  189. Width                                    : 1 920 pixels
  190. Height                                   : 800 pixels
  191. Display aspect ratio                     : 2.40:1
  192. Frame rate mode                          : Constant
  193. Frame rate                               : 24.000 FPS
  194. Color space                              : YUV
  195. Chroma subsampling                       : 4:2:0
  196. Bit depth                                : 8 bits
  197. Scan type                                : Progressive
  198. Bits/(Pixel*Frame)                       : 0.258
  199. Stream size                              : 6.60 GiB (98%)
  200. Default                                  : Yes
  201. Forced                                   : No
  202. Color range                              : Limited
  203. Color primaries                          : BT.709
  204. Transfer characteristics                 : BT.709
  205. Matrix coefficients                      : BT.709
  206.  
  207. Audio
  208. ID                                       : 2
  209. Format                                   : E-AC-3
  210. Format/Info                              : Enhanced AC-3
  211. Commercial name                          : Dolby Digital Plus
  212. Codec ID                                 : A_EAC3
  213. Duration                                 : 1 h 39 min
  214. Bit rate mode                            : Constant
  215. Bit rate                                 : 224 kb/s
  216. Channel(s)                               : 2 channels
  217. Channel layout                           : L R
  218. Sampling rate                            : 48.0 kHz
  219. Frame rate                               : 31.250 FPS (1536 SPF)
  220. Compression mode                         : Lossy
  221. Stream size                              : 159 MiB (2%)
  222. Language                                 : Romanian
  223. Service kind                             : Complete Main
  224. Default                                  : Yes
  225. Forced                                   : No
  226.  
  227. Text
  228. ID                                       : 3
  229. Format                                   : UTF-8
  230. Codec ID                                 : S_TEXT/UTF8
  231. Codec ID/Info                            : UTF-8 Plain Text
  232. Duration                                 : 1 h 35 min
  233. Bit rate                                 : 57 b/s
  234. Count of elements                        : 1447
  235. Stream size                              : 40.5 KiB (0%)
  236. Title                                    : English [CC](SDH)
  237. Language                                 : English
  238. Default                                  : Yes
  239. Forced                                   : No
  240.  
  241.  
  242.