Posted : 1 Week ago

  1. Meat.2017.WEBRip.XviD.MP3-XVID.avi
  2. General
  3. Complete name                            : D:\Meat.2017.WEBRip.XviD.MP3-XVID.avi
  4. Format                                   : AVI
  5. Format/Info                              : Audio Video Interleave
  6. File size                                : 948 MiB
  7. Duration                                 : 1 h 15 min
  8. Overall bit rate                         : 1 762 kb/s
  9. Movie name                               : RARBG - Meat.2017.WEBRip.XviD.MP3-XVID
  10. Writing application                      : Lavf58.20.100
  11. Comment                                  : RARBG - Meat.2017.WEBRip.XviD.MP3-XVID
  12.  
  13. Video
  14. ID                                       : 0
  15. Format                                   : MPEG-4 Visual
  16. Format profile                           : [email protected]
  17. Format settings, BVOP                    : No
  18. Format settings, QPel                    : No
  19. Format settings, GMC                     : No warppoints
  20. Format settings, Matrix                  : Default (H.263)
  21. Codec ID                                 : XVID
  22. Codec ID/Hint                            : XviD
  23. Duration                                 : 1 h 15 min
  24. Bit rate                                 : 1 557 kb/s
  25. Width                                    : 720 pixels
  26. Height                                   : 390 pixels
  27. Display aspect ratio                     : 1.85:1
  28. Frame rate                               : 23.976 (24000/1001) FPS
  29. Color space                              : YUV
  30. Chroma subsampling                       : 4:2:0
  31. Bit depth                                : 8 bits
  32. Scan type                                : Progressive
  33. Compression mode                         : Lossy
  34. Bits/(Pixel*Frame)                       : 0.231
  35. Stream size                              : 838 MiB (88%)
  36. Title                                    : RARBG - Meat.2017.WEBRip.XviD.MP3-XVID
  37. Writing library                          : Lavc58.35.100
  38.  
  39. Audio
  40. ID                                       : 1
  41. Format                                   : MPEG Audio
  42. Format version                           : Version 1
  43. Format profile                           : Layer 3
  44. Format settings                          : Joint stereo
  45. Codec ID                                 : 55
  46. Codec ID/Hint                            : MP3
  47. Duration                                 : 1 h 15 min
  48. Bit rate mode                            : Constant
  49. Bit rate                                 : 192 kb/s
  50. Channel(s)                               : 2 channels
  51. Sampling rate                            : 48.0 kHz
  52. Compression mode                         : Lossy
  53. Stream size                              : 103 MiB (11%)
  54. Alignment                                : Aligned on interleaves
  55. Interleave, duration                     : 24  ms (0.58 video frame)
  56. Interleave, preload duration             : 24  ms
  57. Title                                    : RARBG - Meat.2017.WEBRip.XviD.MP3-XVID
  58. Writing library                          : LAMEUUU
  59.  
  60.  
  61.  
  62. ===================================
  63. Meat.2017.720p.AMZN.WEB-DL.DDP2.0.H.264-KAIZEN.mkv
  64. General
  65. Unique ID                                : 127031814595595448558959136346387423348 (0x5F9170040F5B48E25B08A723408EA074)
  66. Complete name                            : D:\Meat.2017.720p.AMZN.WEB-DL.DDP2.0.H.264-KAIZEN.mkv
  67. Format                                   : Matroska
  68. Format version                           : Version 4
  69. File size                                : 3.00 GiB
  70. Duration                                 : 1 h 15 min
  71. Overall bit rate                         : 5 709 kb/s
  72. Encoded date                             : UTC 2019-09-10 05:08:00
  73. Writing application                      : mkvmerge v36.0.0 ('Is That Jazz?') 64-bit
  74. Writing library                          : libebml v1.3.9 + libmatroska v1.5.2
  75.  
  76. Video
  77. ID                                       : 1
  78. Format                                   : AVC
  79. Format/Info                              : Advanced Video Codec
  80. Format profile                           : [email protected]
  81. Format settings                          : CABAC / 4 Ref Frames
  82. Format settings, CABAC                   : Yes
  83. Format settings, Reference frames        : 4 frames
  84. Codec ID                                 : V_MPEG4/ISO/AVC
  85. Duration                                 : 1 h 15 min
  86. Bit rate mode                            : Constant
  87. Bit rate                                 : 5 483 kb/s
  88. Nominal bit rate                         : 6 000 kb/s
  89. Width                                    : 1 280 pixels
  90. Height                                   : 688 pixels
  91. Display aspect ratio                     : 1.85:1
  92. Frame rate mode                          : Constant
  93. Frame rate                               : 23.976 (24000/1001) FPS
  94. Color space                              : YUV
  95. Chroma subsampling                       : 4:2:0
  96. Bit depth                                : 8 bits
  97. Scan type                                : Progressive
  98. Bits/(Pixel*Frame)                       : 0.260
  99. Stream size                              : 2.88 GiB (96%)
  100. Default                                  : Yes
  101. Forced                                   : No
  102. Color range                              : Limited
  103. Color primaries                          : BT.709
  104. Transfer characteristics                 : BT.709
  105. Matrix coefficients                      : BT.709
  106.  
  107. Audio
  108. ID                                       : 2
  109. Format                                   : E-AC-3
  110. Format/Info                              : Enhanced AC-3
  111. Commercial name                          : Dolby Digital Plus
  112. Codec ID                                 : A_EAC3
  113. Duration                                 : 1 h 15 min
  114. Bit rate mode                            : Constant
  115. Bit rate                                 : 224 kb/s
  116. Channel(s)                               : 2 channels
  117. Channel layout                           : L R
  118. Sampling rate                            : 48.0 kHz
  119. Frame rate                               : 31.250 FPS (1536 SPF)
  120. Compression mode                         : Lossy
  121. Stream size                              : 120 MiB (4%)
  122. Language                                 : English
  123. Service kind                             : Complete Main
  124. Default                                  : Yes
  125. Forced                                   : No
  126.  
  127. Text
  128. ID                                       : 3
  129. Format                                   : UTF-8
  130. Codec ID                                 : S_TEXT/UTF8
  131. Codec ID/Info                            : UTF-8 Plain Text
  132. Duration                                 : 1 h 11 min
  133. Bit rate                                 : 102 b/s
  134. Count of elements                        : 1416
  135. Stream size                              : 53.4 KiB (0%)
  136. Title                                    : English [CC](SDH)
  137. Language                                 : English
  138. Default                                  : Yes
  139. Forced                                   : No
  140.  
  141.  
  142.  
  143. ===================================
  144. Meat.2017.1080p.AMZN.WEB-DL.DDP2.0.H.264-KAIZEN.mkv
  145. General
  146. Unique ID                                : 14933327834495534787609088984704464093 (0xB3C0DE8373931DAF5457AAE3315B4DD)
  147. Complete name                            : D:\Meat.2017.1080p.AMZN.WEB-DL.DDP2.0.H.264-KAIZEN.mkv
  148. Format                                   : Matroska
  149. Format version                           : Version 4
  150. File size                                : 6.10 GiB
  151. Duration                                 : 1 h 15 min
  152. Overall bit rate                         : 11.6 Mb/s
  153. Encoded date                             : UTC 2019-09-10 04:54:48
  154. Writing application                      : mkvmerge v36.0.0 ('Is That Jazz?') 64-bit
  155. Writing library                          : libebml v1.3.9 + libmatroska v1.5.2
  156.  
  157. Video
  158. ID                                       : 1
  159. Format                                   : AVC
  160. Format/Info                              : Advanced Video Codec
  161. Format profile                           : [email protected]
  162. Format settings                          : CABAC / 4 Ref Frames
  163. Format settings, CABAC                   : Yes
  164. Format settings, Reference frames        : 4 frames
  165. Codec ID                                 : V_MPEG4/ISO/AVC
  166. Duration                                 : 1 h 15 min
  167. Bit rate                                 : 11.4 Mb/s
  168. Width                                    : 1 920 pixels
  169. Height                                   : 1 040 pixels
  170. Display aspect ratio                     : 1.85:1
  171. Frame rate mode                          : Constant
  172. Frame rate                               : 23.976 (24000/1001) FPS
  173. Color space                              : YUV
  174. Chroma subsampling                       : 4:2:0
  175. Bit depth                                : 8 bits
  176. Scan type                                : Progressive
  177. Bits/(Pixel*Frame)                       : 0.238
  178. Stream size                              : 5.98 GiB (98%)
  179. Default                                  : Yes
  180. Forced                                   : No
  181. Color range                              : Limited
  182. Color primaries                          : BT.709
  183. Transfer characteristics                 : BT.709
  184. Matrix coefficients                      : BT.709
  185.  
  186. Audio
  187. ID                                       : 2
  188. Format                                   : E-AC-3
  189. Format/Info                              : Enhanced AC-3
  190. Commercial name                          : Dolby Digital Plus
  191. Codec ID                                 : A_EAC3
  192. Duration                                 : 1 h 15 min
  193. Bit rate mode                            : Constant
  194. Bit rate                                 : 224 kb/s
  195. Channel(s)                               : 2 channels
  196. Channel layout                           : L R
  197. Sampling rate                            : 48.0 kHz
  198. Frame rate                               : 31.250 FPS (1536 SPF)
  199. Compression mode                         : Lossy
  200. Stream size                              : 120 MiB (2%)
  201. Language                                 : English
  202. Service kind                             : Complete Main
  203. Default                                  : Yes
  204. Forced                                   : No
  205.  
  206. Text
  207. ID                                       : 3
  208. Format                                   : UTF-8
  209. Codec ID                                 : S_TEXT/UTF8
  210. Codec ID/Info                            : UTF-8 Plain Text
  211. Duration                                 : 1 h 11 min
  212. Bit rate                                 : 102 b/s
  213. Count of elements                        : 1416
  214. Stream size                              : 53.4 KiB (0%)
  215. Title                                    : English [CC](SDH)
  216. Language                                 : English
  217. Default                                  : Yes
  218. Forced                                   : No
  219.  
  220.  
  221.