Posted : 1 Week ago

  1. Billion.Dollar.Bully.2019.720p.AMZN.WEB-DL.DDP2.0.H.264-KamiKaze.mkv
  2. General
  3. Unique ID                                : 221033177555330215546062741787587974512 (0xA64971087B982D01E82D3E1887691570)
  4. Complete name                            : D:\Billion.Dollar.Bully.2019.720p.AMZN.WEB-DL.DDP2.0.H.264-KamiKaze.mkv
  5. Format                                   : Matroska
  6. Format version                           : Version 4
  7. File size                                : 1.70 GiB
  8. Duration                                 : 1 h 22 min
  9. Overall bit rate                         : 2 967 kb/s
  10. Encoded date                             : UTC 2019-09-11 11:00:45
  11. Writing application                      : mkvmerge v25.0.0 ('Prog Noir') 32-bit
  12. Writing library                          : libebml v1.3.6 + libmatroska v1.4.9
  13.  
  14. Video
  15. ID                                       : 1
  16. Format                                   : AVC
  17. Format/Info                              : Advanced Video Codec
  18. Format profile                           : [email protected]
  19. Format settings                          : CABAC / 4 Ref Frames
  20. Format settings, CABAC                   : Yes
  21. Format settings, Reference frames        : 4 frames
  22. Codec ID                                 : V_MPEG4/ISO/AVC
  23. Duration                                 : 1 h 22 min
  24. Bit rate mode                            : Constant
  25. Bit rate                                 : 2 741 kb/s
  26. Nominal bit rate                         : 6 000 kb/s
  27. Width                                    : 1 280 pixels
  28. Height                                   : 720 pixels
  29. Display aspect ratio                     : 16:9
  30. Frame rate mode                          : Constant
  31. Frame rate                               : 23.976 (24000/1001) FPS
  32. Color space                              : YUV
  33. Chroma subsampling                       : 4:2:0
  34. Bit depth                                : 8 bits
  35. Scan type                                : Progressive
  36. Bits/(Pixel*Frame)                       : 0.124
  37. Stream size                              : 1.57 GiB (92%)
  38. Default                                  : Yes
  39. Forced                                   : No
  40. Color range                              : Limited
  41. Color primaries                          : BT.709
  42. Transfer characteristics                 : BT.709
  43. Matrix coefficients                      : BT.709
  44.  
  45. Audio
  46. ID                                       : 2
  47. Format                                   : E-AC-3
  48. Format/Info                              : Enhanced AC-3
  49. Commercial name                          : Dolby Digital Plus
  50. Codec ID                                 : A_EAC3
  51. Duration                                 : 1 h 22 min
  52. Bit rate mode                            : Constant
  53. Bit rate                                 : 224 kb/s
  54. Channel(s)                               : 2 channels
  55. Channel layout                           : L R
  56. Sampling rate                            : 48.0 kHz
  57. Frame rate                               : 31.250 FPS (1536 SPF)
  58. Compression mode                         : Lossy
  59. Stream size                              : 132 MiB (8%)
  60. Language                                 : English
  61. Service kind                             : Complete Main
  62. Default                                  : Yes
  63. Forced                                   : No
  64.  
  65. Text
  66. ID                                       : 3
  67. Format                                   : UTF-8
  68. Codec ID                                 : S_TEXT/UTF8
  69. Codec ID/Info                            : UTF-8 Plain Text
  70. Duration                                 : 1 h 19 min
  71. Bit rate                                 : 115 b/s
  72. Count of elements                        : 1649
  73. Stream size                              : 67.4 KiB (0%)
  74. Title                                    : English [CC](SDH)
  75. Language                                 : English
  76. Default                                  : Yes
  77. Forced                                   : No
  78.  
  79.  
  80.  
  81. ===================================
  82. Billion.Dollar.Bully.2019.1080p.AMZN.WEB-DL.DDP2.0.H.264-KamiKaze.mkv
  83. General
  84. Unique ID                                : 17902216781092844461691773287263316585 (0xD77D76EF761786E3D898829C7032A69)
  85. Complete name                            : D:\Billion.Dollar.Bully.2019.1080p.AMZN.WEB-DL.DDP2.0.H.264-KamiKaze.mkv
  86. Format                                   : Matroska
  87. Format version                           : Version 4
  88. File size                                : 3.31 GiB
  89. Duration                                 : 1 h 22 min
  90. Overall bit rate                         : 5 778 kb/s
  91. Encoded date                             : UTC 2019-09-11 10:55:01
  92. Writing application                      : mkvmerge v25.0.0 ('Prog Noir') 32-bit
  93. Writing library                          : libebml v1.3.6 + libmatroska v1.4.9
  94.  
  95. Video
  96. ID                                       : 1
  97. Format                                   : AVC
  98. Format/Info                              : Advanced Video Codec
  99. Format profile                           : [email protected]
  100. Format settings                          : CABAC / 4 Ref Frames
  101. Format settings, CABAC                   : Yes
  102. Format settings, Reference frames        : 4 frames
  103. Codec ID                                 : V_MPEG4/ISO/AVC
  104. Duration                                 : 1 h 22 min
  105. Bit rate mode                            : Constant
  106. Bit rate                                 : 5 552 kb/s
  107. Nominal bit rate                         : 10 000 kb/s
  108. Width                                    : 1 920 pixels
  109. Height                                   : 1 080 pixels
  110. Display aspect ratio                     : 16:9
  111. Frame rate mode                          : Constant
  112. Frame rate                               : 23.976 (24000/1001) FPS
  113. Color space                              : YUV
  114. Chroma subsampling                       : 4:2:0
  115. Bit depth                                : 8 bits
  116. Scan type                                : Progressive
  117. Bits/(Pixel*Frame)                       : 0.112
  118. Stream size                              : 3.18 GiB (96%)
  119. Default                                  : Yes
  120. Forced                                   : No
  121. Color range                              : Limited
  122. Color primaries                          : BT.709
  123. Transfer characteristics                 : BT.709
  124. Matrix coefficients                      : BT.709
  125.  
  126. Audio
  127. ID                                       : 2
  128. Format                                   : E-AC-3
  129. Format/Info                              : Enhanced AC-3
  130. Commercial name                          : Dolby Digital Plus
  131. Codec ID                                 : A_EAC3
  132. Duration                                 : 1 h 22 min
  133. Bit rate mode                            : Constant
  134. Bit rate                                 : 224 kb/s
  135. Channel(s)                               : 2 channels
  136. Channel layout                           : L R
  137. Sampling rate                            : 48.0 kHz
  138. Frame rate                               : 31.250 FPS (1536 SPF)
  139. Compression mode                         : Lossy
  140. Stream size                              : 132 MiB (4%)
  141. Language                                 : English
  142. Service kind                             : Complete Main
  143. Default                                  : Yes
  144. Forced                                   : No
  145.  
  146. Text
  147. ID                                       : 3
  148. Format                                   : UTF-8
  149. Codec ID                                 : S_TEXT/UTF8
  150. Codec ID/Info                            : UTF-8 Plain Text
  151. Duration                                 : 1 h 19 min
  152. Bit rate                                 : 115 b/s
  153. Count of elements                        : 1649
  154. Stream size                              : 67.4 KiB (0%)
  155. Title                                    : English [CC](SDH)
  156. Language                                 : English
  157. Default                                  : Yes
  158. Forced                                   : No
  159.  
  160.  
  161.