Posted : 3 Days ago

  1. Compared.to.What.The.Improbable.Journey.of.Barney.Frank.2014.1080p.WEBRip.DD5.1.x264-monkee.mkv
  2. General
  3. Unique ID                                : 215391800844317916524198044198415301163 (0xA20AF3AFDC16A341A40E01ACA28EFA2B)
  4. Complete name                            : D:\Compared.to.What.The.Improbable.Journey.of.Barney.Frank.2014.1080p.WEBRip.DD5.1.x264-monkee.mkv
  5. Format                                   : Matroska
  6. Format version                           : Version 4
  7. File size                                : 6.44 GiB
  8. Duration                                 : 1 h 27 min
  9. Overall bit rate mode                    : Variable
  10. Overall bit rate                         : 10.5 Mb/s
  11. Encoded date                             : UTC 2017-03-31 16:48:05
  12. Writing application                      : mkvmerge v9.6.0 ('Slave To Your Mind') 64bit
  13. Writing library                          : libebml v1.3.4 + libmatroska v1.4.5
  14.  
  15. Video
  16. ID                                       : 1
  17. Format                                   : AVC
  18. Format/Info                              : Advanced Video Codec
  19. Format profile                           : [email protected]
  20. Format settings                          : CABAC / 4 Ref Frames
  21. Format settings, CABAC                   : Yes
  22. Format settings, Reference frames        : 4 frames
  23. Codec ID                                 : V_MPEG4/ISO/AVC
  24. Duration                                 : 1 h 27 min
  25. Bit rate mode                            : Variable
  26. Bit rate                                 : 9 699 kb/s
  27. Maximum bit rate                         : 15.0 Mb/s
  28. Width                                    : 1 920 pixels
  29. Height                                   : 1 080 pixels
  30. Display aspect ratio                     : 16:9
  31. Frame rate mode                          : Constant
  32. Frame rate                               : 29.970 (30000/1001) FPS
  33. Color space                              : YUV
  34. Chroma subsampling                       : 4:2:0
  35. Bit depth                                : 8 bits
  36. Scan type                                : Progressive
  37. Bits/(Pixel*Frame)                       : 0.156
  38. Stream size                              : 5.92 GiB (92%)
  39. Writing library                          : x264 core 148 r2623 d5b2374
  40. Encoding settings                        : cabac=1 / ref=4 / deblock=1:-1:-1 / analyse=0x3:0x133 / me=umh / subme=9 / psy=1 / psy_rd=1.00:0.15 / mixed_ref=1 / me_range=24 / chroma_me=1 / trellis=2 / 8x8dct=1 / cqm=0 / deadzone=21,11 / fast_pskip=1 / chroma_qp_offset=-3 / threads=34 / lookahead_threads=5 / sliced_threads=0 / nr=150 / decimate=1 / interlaced=0 / bluray_compat=0 / constrained_intra=0 / bframes=8 / b_pyramid=2 / b_adapt=2 / b_bias=0 / direct=3 / weightb=1 / open_gop=0 / weightp=2 / keyint=150 / keyint_min=76 / scenecut=0 / intra_refresh=0 / rc_lookahead=150 / rc=crf / mbtree=1 / crf=18.0 / qcomp=0.60 / qpmin=0 / qpmax=69 / qpstep=4 / vbv_maxrate=15000 / vbv_bufsize=31250 / crf_max=0.0 / nal_hrd=vbr / filler=0 / ip_ratio=1.40 / aq=3:1.00
  41. Default                                  : Yes
  42. Forced                                   : No
  43. Color range                              : Limited
  44. Color primaries                          : BT.709
  45. Transfer characteristics                 : BT.709
  46. Matrix coefficients                      : BT.709
  47.  
  48. Audio
  49. ID                                       : 2
  50. Format                                   : E-AC-3
  51. Format/Info                              : Enhanced AC-3
  52. Commercial name                          : Dolby Digital Plus
  53. Codec ID                                 : A_EAC3
  54. Duration                                 : 1 h 27 min
  55. Bit rate mode                            : Constant
  56. Bit rate                                 : 640 kb/s
  57. Channel(s)                               : 6 channels
  58. Channel layout                           : L R C LFE Ls Rs
  59. Sampling rate                            : 48.0 kHz
  60. Frame rate                               : 31.250 FPS (1536 SPF)
  61. Compression mode                         : Lossy
  62. Stream size                              : 400 MiB (6%)
  63. Language                                 : English
  64. Service kind                             : Complete Main
  65. Default                                  : Yes
  66. Forced                                   : No
  67.  
  68. Text
  69. ID                                       : 3
  70. Format                                   : UTF-8
  71. Codec ID                                 : S_TEXT/UTF8
  72. Codec ID/Info                            : UTF-8 Plain Text
  73. Language                                 : English
  74. Default                                  : No
  75. Forced                                   : No
  76.  
  77.  
  78.  
  79. ===================================
  80. Compared.to.What.The.Improbable.Journey.of.Barney.Frank.2014.WEBRip.XviD.MP3-RBG.avi
  81. General
  82. Complete name                            : D:\Compared.to.What.The.Improbable.Journey.of.Barney.Frank.2014.WEBRip.XviD.MP3-RBG.avi
  83. Format                                   : AVI
  84. Format/Info                              : Audio Video Interleave
  85. Format profile                           : OpenDML
  86. File size                                : 1.10 GiB
  87. Duration                                 : 1 h 27 min
  88. Overall bit rate                         : 1 809 kb/s
  89. Movie name                               : RARBG - Compared.to.What.The.Improbable.Journey.of.Barney.Frank.2014.WEBRip.XviD.MP3-XVID
  90. Writing application                      : Lavf58.20.100
  91. Comment                                  : RARBG - Compared.to.What.The.Improbable.Journey.of.Barney.Frank.2014.WEBRip.XviD.MP3-XVID
  92.  
  93. Video
  94. ID                                       : 0
  95. Format                                   : MPEG-4 Visual
  96. Format profile                           : [email protected]
  97. Format settings, BVOP                    : No
  98. Format settings, QPel                    : No
  99. Format settings, GMC                     : No warppoints
  100. Format settings, Matrix                  : Default (H.263)
  101. Codec ID                                 : XVID
  102. Codec ID/Hint                            : XviD
  103. Duration                                 : 1 h 27 min
  104. Bit rate                                 : 1 600 kb/s
  105. Width                                    : 720 pixels
  106. Height                                   : 400 pixels
  107. Display aspect ratio                     : 16:9
  108. Frame rate                               : 29.970 (30000/1001) FPS
  109. Color space                              : YUV
  110. Chroma subsampling                       : 4:2:0
  111. Bit depth                                : 8 bits
  112. Scan type                                : Progressive
  113. Compression mode                         : Lossy
  114. Bits/(Pixel*Frame)                       : 0.185
  115. Stream size                              : 1 000 MiB (88%)
  116. Title                                    : RARBG - Compared.to.What.The.Improbable.Journey.of.Barney.Frank.2014.WEBRip.XviD.MP3-XVID
  117. Writing library                          : Lavc58.35.100
  118.  
  119. Audio
  120. ID                                       : 1
  121. Format                                   : MPEG Audio
  122. Format version                           : Version 1
  123. Format profile                           : Layer 3
  124. Format settings                          : Joint stereo / MS Stereo
  125. Codec ID                                 : 55
  126. Codec ID/Hint                            : MP3
  127. Duration                                 : 1 h 27 min
  128. Bit rate mode                            : Constant
  129. Bit rate                                 : 192 kb/s
  130. Channel(s)                               : 2 channels
  131. Sampling rate                            : 48.0 kHz
  132. Compression mode                         : Lossy
  133. Stream size                              : 120 MiB (11%)
  134. Alignment                                : Aligned on interleaves
  135. Interleave, duration                     : 24  ms (0.72 video frame)
  136. Interleave, preload duration             : 24  ms
  137. Title                                    : RARBG - Compared.to.What.The.Improbable.Journey.of.Barney.Frank.2014.WEBRip.XviD.MP3-XVID
  138. Writing library                          : LAME
  139.  
  140.  
  141.